Nukkuva hirviö

Ostin netistä Sielun veljien uuden kappaleen eurolla. Sen voi kuunnella ilmaiseksikin, mutta päätin kannattaa uusia käteviä musiikinkaupustelutapoja. Osto tapahtui Equal dreams -nimisen palvelun kautta, maksu hoitui verkkopankissa ja kappaleen sai saman tien imuroida flac- ja mp3-tiedostona. Equal dreamsissa tekijöille menee näköjään 85 prosenttia myyntituotosta. Tässä tapauksessa siis Fullsteam-levy-yhtiölle, joka jakaa tulot yhtiön, esittäjien ja tekijöiden kesken miten sitten jakaakin.

Osuuspankki otti tosin maksutapahtumasta 34 senttiä eli neljänneksen siitä, mitä minä lopulta maksoin. Muut pankit olisivat hoitaneet rahaliikenteen 12 sentillä. Kummallista.

Kuten tunnettua, musiikkiteollisuus heräsi kehittämään toimivia musiikin verkkomyyntipalveluja 15 vuotta liian myöhään, ja tämä laiminlyönti kostautui laittomana levityksenä. Isot levy-yhtiöt tekijänoikeusjärjestöjen välityksellä jaksavat vielä ajaa velkavankeustuomioita pelotellakseen laittomia levittäjiä. Tämä toiminta on niin halveksittavaa, että toisinaan harkitsen eroamista Teostosta ja Gramexista.

Onneksi on tällaisia toimivia levittäjiä, eikä kaiken tarvitse mennä keskusvaltaisten suurfirmojen kuten Applen järjestelmien kautta. Mainontakin hoitui ja tiedon levystä sain sotilaallisessa mediassa.

Vertailin taas piruuttani äänitiedostojen desibelejä. Väänsin dynamiikkamittarin läpi ostamani flac- ja mp3-tiedostot ja lisäksi verkosta suoraan kuunneltavan äänitteen, joka sijaitsee Soundcloudin palvelussa.

 DR   	   Peak     	   RMS      	 Filename

 DR6	  -0.10 dB	  -7.23 dB	 01-Nukkuvahirvio-flac.wav
 DR6	   over    	  -7.23 dB	 01-Nukkuvahirvio-mp3.wav
 DR7	  -1.87 dB	  -9.69 dB	 01-Nukkuvahirvio-sc.wav

Suorakuunteluversio on siis hiljaisin ja dynaamisin, mp3 meluisin. Suosittelen musiikinystäville flac-koodattua musiikkia. Flac on häviötön ja patenteista vapaa pakkausmenetelmä. iTunesiin flac-tiedostot saa Fluke-ohjelman avulla.

Jätä kommentti

Sähköpostiosoitettasi ei julkaista. Pakolliset kentät on merkitty *